<?xml version="1.0" standalone="no"?>
<!DOCTYPE svg PUBLIC "-//W3C//DTD SVG 1.1//EN" "http://www.w3.org/Graphics/SVG/1.1/DTD/svg11.dtd" >
<svg xmlns="http://www.w3.org/2000/svg">
<metadata>
Created by FontForge 20120731 at Sat Oct  8 15:14:44 2016
 By admin
</metadata>
<defs>
<font id="iconfont" horiz-adv-x="1024" >
  <font-face 
    font-family="iconfont"
    font-weight="500"
    font-stretch="normal"
    units-per-em="1024"
    panose-1="2 0 6 3 0 0 0 0 0 0"
    ascent="896"
    descent="-128"
    x-height="792"
    bbox="-0.470589 -212 1030 896"
    underline-thickness="50"
    underline-position="-100"
    unicode-range="U+0078-E619"
  />
<missing-glyph horiz-adv-x="374" 
d="M34 0v682h272v-682h-272zM68 34h204v614h-204v-614z" />
    <glyph glyph-name=".notdef" horiz-adv-x="374" 
d="M34 0v682h272v-682h-272zM68 34h204v614h-204v-614z" />
    <glyph glyph-name=".null" horiz-adv-x="0" 
 />
    <glyph glyph-name="nonmarkingreturn" horiz-adv-x="341" 
 />
    <glyph glyph-name="x" unicode="x" horiz-adv-x="1001" 
d="M281 543q-27 -1 -53 -1h-83q-18 0 -36.5 -6t-32.5 -18.5t-23 -32t-9 -45.5v-76h912v41q0 16 -0.5 30t-0.5 18q0 13 -5 29t-17 29.5t-31.5 22.5t-49.5 9h-133v-97h-438v97zM955 310v-52q0 -23 0.5 -52t0.5 -58t-10.5 -47.5t-26 -30t-33 -16t-31.5 -4.5q-14 -1 -29.5 -0.5
t-29.5 0.5h-32l-45 128h-439l-44 -128h-29h-34q-20 0 -45 1q-25 0 -41 9.5t-25.5 23t-13.5 29.5t-4 30v167h911zM163 247q-12 0 -21 -8.5t-9 -21.5t9 -21.5t21 -8.5q13 0 22 8.5t9 21.5t-9 21.5t-22 8.5zM316 123q-8 -26 -14 -48q-5 -19 -10.5 -37t-7.5 -25t-3 -15t1 -14.5
t9.5 -10.5t21.5 -4h37h67h81h80h64h36q23 0 34 12t2 38q-5 13 -9.5 30.5t-9.5 34.5q-5 19 -11 39h-368zM336 498v228q0 11 2.5 23t10 21.5t20.5 15.5t34 6h188q31 0 51.5 -14.5t20.5 -52.5v-227h-327z" />
    <glyph glyph-name="uniE600" unicode="&#xe600;" horiz-adv-x="1000" 
d="M1000 -12v750h-1000v-750h375v-63h-187v-63h624v63h-187v63h375zM125 112v500h750v-500h-750z" />
    <glyph glyph-name="uniE601" unicode="&#xe601;" 
d="M63 705v-141h892v141h-892zM63 235h892v141h-892v-141zM63 -94h892v141h-892v-141z" />
    <glyph glyph-name="uniE602" unicode="&#xe602;" 
d="M940 -46l-265 266q61 87 61 193q0 91 -45 168.5t-122 122.5t-168.5 45t-168.5 -45t-122 -122.5t-45 -168.5t45 -168t122 -122t169 -45q106 0 193 62l266 -266q18 -18 43 -19.5t41.5 15.5t15.5 41.5t-20 42.5zM177 413.5q0 92.5 65.5 158t158 65.5t158 -65.5t65.5 -158
t-65.5 -158t-158 -65.5t-158 65.5t-65.5 158z" />
    <glyph glyph-name="uniE603" unicode="&#xe603;" 
d="M831 765q27 14 59 14q51 0 87 -33.5t36 -79.5q0 -39 -26 -70zM1013 300q0 -102 -39.5 -195t-107 -160t-160 -106.5t-194.5 -39.5t-195 39.5t-160 106.5t-107 160t-40 195t40 195t107 160t160 106.5t195 39.5t194.5 -39.5t160 -106.5t107 -160t39.5 -195zM511.5 710
q-111.5 0 -206 -55t-149.5 -149.5t-55 -205.5t55 -205.5t149.5 -149.5t206 -55t206 55t149.5 149.5t55 205.5t-55 205.5t-149.5 149.5t-206 55zM472 120l-38 32q-37 33 -83 74.5t-64 59.5q-14 14 -17 28.5t4 24.5t17.5 15.5t25 3t25.5 -13.5q15 -15 47.5 -44.5t58 -51.5
t24.5 -21q186 156 218 188q21 21 43.5 15.5t26 -25t-11.5 -38.5q-21 -21 -90 -83t-128.5 -114t-57.5 -50zM10 666q0 46 36 79.5t87 33.5q32 0 60 -14l-157 -169q-26 31 -26 70z" />
    <glyph glyph-name="uniE604" unicode="&#xe604;" 
d="M702 559v-179h-319v-160h319v-179l259 259zM543 539v160h-479v-798h479v160h-319v478h319z" />
    <glyph glyph-name="uniE605" unicode="&#xe605;" 
d="M852 727h-682q-36 0 -61 -25t-25 -60v-683q0 -35 25 -60t61 -25h682q35 0 60.5 25t25.5 60v683q0 35 -25.5 60t-60.5 25zM550 -7q0 -14 -10 -24t-24 -10t-24.5 10t-10.5 24v30q0 14 10.5 24t24.5 10t24 -10t10 -24v-30zM679 322q-73 -74 -84 -86q-45 -52 -45 -110
q-1 -14 -10.5 -23.5t-23.5 -9.5t-24.5 10t-10.5 24q0 1 1 3v1q2 51 28 98q25 43 67.5 82.5t54.5 55.5q23 33 23 74q0 58 -43.5 96.5t-100.5 38.5q-62 0 -104.5 -47t-42.5 -112h-1l1 -1q0 -14 -9.5 -23.5t-23.5 -9.5t-23.5 9.5t-9.5 23.5l1 1h-1v20q0 38 17 76.5t47 67.5
t70 45t85 16q88 0 147.5 -59.5t59.5 -148.5q0 -59 -45 -112z" />
    <glyph glyph-name="uniE606" unicode="&#xe606;" 
d="M512 748q-91 0 -173.5 -35t-142.5 -95t-95.5 -143t-35.5 -174t35.5 -174t95.5 -143t142.5 -95t173.5 -35t174 35t143 95t95.5 143t35.5 174t-35.5 174t-95.5 143t-143 95t-174 35zM496 645q5 1 6 3h20q22 -11 24 -13q27 -23 18 -55q-10 -34 -45 -38q-21 -3 -38 9t-21 33
q-4 20 6.5 37.5t29.5 23.5zM274 549q51 -34 153 -114q61 -47 117 -91q27 -21 20 -53q-6 -34 -40 -42q-33 -7 -54 20q-140 179 -180 235q-21 29 -31 46q-3 5 -4 9q8 -2 19 -10zM859 287l-1 -3q0 -3 1 -3v-8q-1 -5 -2 -16t-2 -16q-13 -75 -56 -138q-45 -65 -113 -104
q-60 -34 -125 -43q-4 0 -11.5 -0.5t-11.5 -1.5h-5q-1 1 -3 1q-4 0 -4 -1h-27q0 1 -4 1q-2 0 -3 -1h-8q-5 1 -15.5 2t-15.5 2q-94 17 -166 78q-64 55 -97 134q-17 40 -23 83v9q0 7 -1 11v8l1 3l-1 3v28q1 -1 1 1v3q-1 3 -1 4v5q0 1 3 22q7 45 25 87q4 11 15 16t22 1
q16 -5 23 -18.5t1 -28.5q-11 -28 -15 -49q-16 -75 8 -145q20 -61 65 -107q40 -40 93 -62q56 -24 117 -22q83 4 151 52q63 45 94 117q31 69 21 143q-15 117 -110 190q-6 4 -12 8.5t-14 9t-13 7.5q-9 6 -14 15q-14 22 6 42q15 15 37 4q107 -56 158 -164q25 -53 31 -114
q0 -4 1 -4v-5q-1 0 -1 -3v-3v-3l1 -5v-22z" />
    <glyph glyph-name="uniE607" unicode="&#xe607;" 
d="M256 218v-327h154v327l-77 64zM0 -109h154v250l-154 -122v-128zM768 294v-403h154v531zM512 134v-243h154v320l-122 -102zM1024 685h-294l121 -115l-313 -256l-205 172l-333 -262v-115l333 262l211 -173l378 308l102 -96v275z" />
    <glyph glyph-name="uniE608" unicode="&#xe608;" 
d="M852 146q-71 0 -121.5 -50.5t-50.5 -121.5t50.5 -121.5t121.5 -50.5t121.5 50.5t50.5 121.5t-50.5 121.5t-121.5 50.5zM918 -16v-16h-56v-25h56v-15h-56v-52h-20v52h-56v15h56v25h-56v16h46l-53 88h23l50 -86l51 86h22l-52 -88h45zM653 -16h-579v212h149q4 -31 19 -51
t35 -20t35.5 20t19.5 51h37q4 -30 19.5 -49.5t35 -19.5t34.5 19.5t19 49.5h42q4 -30 19.5 -50.5t35.5 -20.5t35 20.5t19 50.5h225v-23q38 0 74 -14v639h-927v-885h662q-10 30 -10 61v3q0 2 0.5 4t0.5 3zM74 727h778v-212h-76q-4 30 -19 50t-35 20t-35 -20t-19 -50h-262
q-4 30 -19.5 50t-35.5 20t-35 -20t-19 -50h-40q-4 30 -19 49.5t-35 19.5t-35 -19.5t-19 -49.5h-75v212zM74 480h74q4 -32 19.5 -52.5t35.5 -20.5t35.5 20.5t19.5 52.5h39q4 -31 19 -51.5t35 -20.5t35.5 20.5t19.5 51.5h261q4 -31 19.5 -51.5t35.5 -20.5t35.5 20.5t19.5 51.5
h75v-248h-224q-4 30 -19 50t-35 20t-35.5 -20t-19.5 -50h-41q-4 31 -19 51.5t-35.5 20.5t-36 -20.5t-18.5 -51.5h-37q-4 30 -19.5 50t-35.5 20t-35 -20t-19 -50h-149v248z" />
    <glyph glyph-name="uniE609" unicode="&#xe609;" 
d="M827 761h-630q-65 0 -111.5 -46.5t-46.5 -111.5v-630q0 -65 46.5 -111.5t111.5 -46.5h630q65 0 111.5 46.5t46.5 111.5v630q0 65 -46.5 111.5t-111.5 46.5zM906 52q0 -66 -46 -112t-112 -46h-472q-66 0 -112 46t-46 112v472q0 66 46 112t112 46h472q66 0 112 -46t46 -112
v-472zM551 367h-78q-17 0 -28.5 -11.5t-11.5 -28.5v-78q0 -17 11.5 -28.5t28.5 -11.5h78q17 0 28.5 11.5t11.5 28.5v78q0 17 -11.5 28.5t-28.5 11.5zM551 130h-78q-17 0 -28.5 -11.5t-11.5 -27.5v-79q0 -16 11.5 -27.5t28.5 -11.5h78q17 0 28.5 11.5t11.5 27.5v79
q0 16 -11.5 27.5t-28.5 11.5zM315 130h-79q-16 0 -27.5 -11.5t-11.5 -27.5v-79q0 -16 11.5 -27.5t27.5 -11.5h79q16 0 27.5 11.5t11.5 27.5v79q0 16 -11.5 27.5t-27.5 11.5zM315 367h-79q-16 0 -27.5 -11.5t-11.5 -28.5v-78q0 -17 11.5 -28.5t27.5 -11.5h79q16 0 27.5 11.5
t11.5 28.5v78q0 17 -11.5 28.5t-27.5 11.5zM315 603h-79q-16 0 -27.5 -11.5t-11.5 -27.5v-79q0 -16 11.5 -27.5t27.5 -11.5h79q16 0 27.5 11.5t11.5 27.5v79q0 16 -11.5 27.5t-27.5 11.5zM551 603h-78q-17 0 -28.5 -11.5t-11.5 -27.5v-79q0 -16 11.5 -27.5t28.5 -11.5h78
q17 0 28.5 11.5t11.5 27.5v79q0 16 -11.5 27.5t-28.5 11.5zM788 603h-79q-16 0 -27.5 -11.5t-11.5 -27.5v-79q0 -16 11.5 -27.5t27.5 -11.5h79q16 0 27.5 11.5t11.5 27.5v79q0 16 -11.5 27.5t-27.5 11.5zM788 367h-79q-16 0 -27.5 -11.5t-11.5 -28.5v-78q0 -17 11.5 -28.5
t27.5 -11.5h79q16 0 27.5 11.5t11.5 28.5v78q0 17 -11.5 28.5t-27.5 11.5z" />
    <glyph glyph-name="uniE60A" unicode="&#xe60a;" 
d="M911 5l-206 203q21 44 21 92q0 88 -62.5 150.5t-151.5 62.5q-29 0 -57 -7l91 -91q29 -29 27 -71t-32.5 -72.5t-72.5 -32.5t-71 26l-91 92q-7 -28 -7 -57q0 -89 62.5 -151.5t150.5 -62.5q49 0 91 21l205 -204q20 -19 48.5 -18t49.5 22t22.5 50t-17.5 48v0zM856 -78
q-15 0 -26 10.5t-11 25.5t11 25.5t26 10.5t25.5 -10.5t10.5 -25.5t-10.5 -25.5t-25.5 -10.5v0zM960 395h-21h-48h-1q-14 1 -27 10h-1q-29 19 -28 54q0 9 3 20t10 19l11 11l24 24l15 15q15 20 15 45.5t-16 46.5l-42 42q-21 16 -46.5 16.5t-46.5 -14.5l-15 -15l-34 -34v0
q-30 -24 -65 -9q-11 5 -20 14q-15 16 -18 37v15v34v21q-3 26 -21.5 44t-44.5 21h-59q-26 -3 -44.5 -21t-22.5 -43v-21v-35v-14v0q0 -1 -0.5 -2.5t-0.5 -2.5v-1q0 -1 -1 -5q-1 -1 -1 -3l-1 -2l-2 -4q0 -1 -1 -2q-5 -11 -15 -19q-18 -15 -42 -15q-22 0 -39 13l-11 11l-24 24
l-15 15q-20 16 -46 15.5t-46 -16.5l-42 -42q-17 -20 -17 -46t15 -47l15 -14l34 -34l2 -3l1 -2q1 0 1 -0.5t0.5 -1.5t1.5 -2h1v-1q0 -1 0.5 -2t1.5 -2v-2q1 0 1.5 -1.5t0.5 -2.5v-1q1 -1 1.5 -3t0.5 -3q1 -3 1 -6q4 -30 -19 -53q-15 -15 -37 -18h-15h-34h-21q-26 -4 -44 -22
t-21 -44v-60q3 -25 21 -43.5t43 -22.5h21h49q5 -1 6 -1h1q3 -1 4 -1q20 -7 33 -23.5t13 -38.5q0 -23 -14 -40l-11 -10l-24 -24l-15 -14q-15 -21 -15 -47t16 -46l42 -43q20 -16 46 -16t47 16l14 14l35 34v1q1 0 2.5 1t1.5 2q2 0 3 1l1 1l1 1h3l1 1l2 1q1 1 3 1q1 1 2 1v0l5 2
h1h2q2 0 3 1h1h4q29 1 49 -19q15 -15 19 -38l-1 -15v-33v-21q3 -26 21.5 -44t44.5 -21h60q25 3 43.5 20.5t22.5 43.5v20v36v13q2 18 13 32q1 2 2 3l2 2q6 6 13 11q1 0 4 2l1 1h1q1 0 2 0.5t2 0.5l-57 57q-37 -10 -79 -10q-116 0 -198 82t-81 198q0 116 82.5 198.5
t198.5 81.5q116 0 197.5 -82.5t81.5 -198.5q0 -39 -11 -76l58 -57q3 8 13 19q8 8 21 13q9 4 16 5h16h34h20q26 3 44 21.5t21 43.5v61q-3 25 -21 43.5t-43 22.5v0zM960 395z" />
    <glyph glyph-name="uniE60B" unicode="&#xe60b;" 
d="M673 226q37 37 54.5 86t13.5 102q-8 86 -71 146.5t-148 65.5h-4h-7h-6h-3q-85 -5 -148 -65.5t-71 -146.5q-5 -53 13 -102t55 -86q-66 -43 -102.5 -116t-36.5 -161v-77h600v77q0 88 -36.5 161t-102.5 116zM305 -35q4 76 46 133t106 75l31 8v70l-26 10q-45 19 -69 62
t-16 93q7 43 38.5 75t74.5 40q10 2 22 2t22 -2q43 -8 74.5 -40t38.5 -75q8 -50 -16 -93t-69 -62l-26 -10v-70l31 -8q64 -18 106 -75t46 -133h-414zM214 202q-72 27 -116 91t-44 141q0 94 62 164t153 81q12 91 81 153t162 62t162 -62t81 -153q91 -11 153 -81t62 -164
q0 -77 -44 -141t-116 -91l-31 85q45 17 73 57.5t28 89.5q0 65 -45.5 110.5t-109.5 45.5h-7l-54 -4l3 56v4q0 65 -45.5 111t-109.5 46t-109.5 -46t-45.5 -111v-5l3 -55l-54 4h-7q-64 0 -109.5 -45.5t-45.5 -110.5q0 -49 28 -89.5t73 -57.5z" />
    <glyph glyph-name="uniE60C" unicode="&#xe60c;" 
d="M827 -69v-39h-630v39l5 11q4 7 14.5 17.5t19.5 10.5h552q16 0 27.5 -11.5t11.5 -27.5zM1024 758v-551q0 -49 -34.5 -83.5t-83.5 -34.5h-276v-40q0 -15 -11.5 -27t-27.5 -12h-158q-16 0 -27.5 11.5t-11.5 27.5v40h-276q-49 0 -83.5 34.5t-34.5 83.5v551q0 49 34.5 83.5
t83.5 34.5h788q49 0 83.5 -34.5t34.5 -83.5zM945 167.5q0 11.5 -8 20t-20 8.5t-20.5 -8.5t-8.5 -20t8.5 -20t20.5 -8.5t20 8.5t8 20zM945 758q0 16 -11.5 28t-27.5 12h-788q-16 0 -27.5 -12t-11.5 -28v-472q0 -17 11.5 -28.5t27.5 -11.5h788q16 0 27.5 11.5t11.5 28.5v472z
M566 474q-3 1 -5.5 2.5t-7.5 7.5t2 16q18 25 20 41q19 15 20 37q0 10 -1 16t-2 7l-1 1q3 10 3.5 28t-2.5 37t-16 31t-33 8q-5 11 -23 16.5t-40.5 -2t-36.5 -31.5q-25 -45 -8 -88q0 -1 -0.5 -1t-1.5 -0.5t-2 -2.5t-1 -7q-2 -22 10 -39q4 -5 10 -7q4 -23 22 -44q1 -8 -2 -14
t-7 -9l-4 -3q-43 -8 -74.5 -29t-31.5 -45v-26q0 -44 159 -44q58 0 108.5 14t50.5 30v26q0 24 -31 45t-74 29z" />
    <glyph glyph-name="uniE60D" unicode="&#xe60d;" 
d="M870 896h-102q-5 0 -6 -4.5t1.5 -12.5t6 -16t6.5 -16.5t3 -13.5q0 -14 13 -26.5t27 -12.5h51q31 0 41.5 -10.5t10.5 -41.5v-716q0 -31 -10.5 -41.5t-41.5 -10.5h-716q-31 0 -41.5 10.5t-10.5 41.5v716v16v13q0 3 1 9t3 8l6 4q4 3 10 3.5t14 0.5h86q13 0 19.5 11t6.5 26
q0 5 2.5 13.5t5.5 16.5t5.5 16t1 12.5t-6.5 4.5h-102q-76 0 -115 -23.5t-39 -78.5v-780q0 -36 3 -58.5t13 -43.5t31.5 -30.5t54.5 -9.5h820q34 0 55 8.5t31 28.5t13 42.5t3 62.5v780q0 60 -19 81t-83 21h-52zM205 589v-19v-32h563q10 0 17.5 -1t13 2t9 4.5t6 6.5t4 7.5
t1.5 8t0.5 8.5t0 8t-0.5 7q0 29 -15.5 40t-35.5 11h-563q4 -6 4 -23t-2 -42.5t-2 -36.5v51zM768 435h-563q-6 0 -8 -3t-1 -8.5t2.5 -12t3.5 -14.5t3 -13q0 -5 -1.5 -12t-3.5 -13.5t-3 -12.5t0.5 -9.5t7.5 -3.5h614q1 9 2 19t1.5 13t-0.5 7.5t-3 11.5q-3 8 -3 19t2 21l1 11
h-51zM768 230h-563q-9 0 -9 -8t4.5 -22t4.5 -20.5t-4.5 -21t-4.5 -22.5t9 -8h563q1 0 17.5 -0.5t33.5 0.5q6 1 6.5 24t-2 46t-4.5 32h-51zM410 794h204q22 0 37 14t15 37q0 26 -7.5 38.5t-27.5 12.5h-236q-21 0 -29 -13t-8 -38q0 -23 14.5 -37t37.5 -14zM410 794z" />
    <glyph glyph-name="uniE60E" unicode="&#xe60e;" 
d="M1009 383l-160 191h-145v185h-594v-131h-64q-13 0 -22.5 -9.5t-9.5 -23t9.5 -22.5t22.5 -9h298q13 0 22.5 9t9.5 22.5t-9.5 23t-22.5 9.5h-170v67h466v-531h-162q-11 37 -42.5 61t-71.5 24t-71 -24t-43 -61h-86v24q0 13 -9 22.5t-22.5 9.5t-23 -9.5t-9.5 -22.5v-88h149
q10 -39 42 -64.5t73 -25.5t73 25.5t42 64.5h161h63q10 -39 42 -64.5t73.5 -25.5t73.5 25.5t42 64.5h75v283zM364 74q-23 0 -39 16.5t-16 39t16 39t39 16.5t39 -16.5t16 -39t-16 -39t-39 -16.5zM819 74q-23 0 -39.5 16.5t-16.5 39t16.5 39t39.5 16.5t39 -16.5t16 -39t-16 -39
t-39 -16.5zM945 164h-13q-11 37 -42.5 61t-71 24t-71 -24t-42.5 -61h-1v346h115l126 -151v-195zM46 418h322q14 0 23 9.5t9 22.5t-9 22.5t-23 9.5h-322q-13 0 -22.5 -9.5t-9.5 -22.5t9.5 -22.5t22.5 -9.5zM450 302q0 13 -9.5 22.5t-22.5 9.5h-372q-13 0 -22.5 -9.5
t-9.5 -22.5t9.5 -22.5t22.5 -9.5h372q13 0 22.5 9.5t9.5 22.5zM747 319h134l-58 91h-76v-91z" />
    <glyph glyph-name="uniE60F" unicode="&#xe60f;" 
d="M386 447l126 -158l126 158h-252z" />
    <glyph glyph-name="uniE610" unicode="&#xe610;" horiz-adv-x="1025" 
d="M940 795zM982 695zM928 896h-832q-40 0 -68 -28t-28 -68v-832q0 -40 28 -68t68 -28h832q40 0 68 28t28 68v832q0 40 -28 68t-68 28zM96 828h833q11 0 19 -8t8 -20v-134h-888v134q0 11 8.5 19.5t19.5 8.5zM928 -60h-832q-11 0 -19.5 8.5t-8.5 19.5v664h888v-664
q0 -11 -8.5 -19.5t-19.5 -8.5zM862 359h-342q-10 0 -17.5 7.5t-7.5 18t7.5 18t17.5 7.5h342q10 0 17.5 -7.5t7.5 -18t-7.5 -18t-17.5 -7.5zM862 162h-342q-10 0 -17.5 7.5t-7.5 18t7.5 18t17.5 7.5h342q10 0 17.5 -7.5t7.5 -18t-7.5 -18t-17.5 -7.5zM862 17h-342
q-10 0 -17.5 7.5t-7.5 18t7.5 18t17.5 7.5h342q10 0 17.5 -7.5t7.5 -18t-7.5 -18t-17.5 -7.5zM836 785h77v-77h-77v77zM683 785h76v-77h-76v77zM247 231h77v-77h-77v77zM247 85h77v-76h-77v76zM520 785h77v-77h-77v77zM293 305q-10 0 -18 7l-100 98q-8 7 -8 18t7.5 18.5
t18 7.5t18.5 -7l78 -77l127 182q6 9 16.5 11t19 -4t10.5 -16.5t-4 -19.5l-144 -207q-6 -10 -18 -11h-3z" />
    <glyph glyph-name="uniE611" unicode="&#xe611;" 
d="M888 -92q-40 0 -68 28t-28 68t28 68t68 28t68 -28t28 -68t-28 -68t-68 -28zM888 148q-20 0 -34 14t-14 34v136h-280v-136q0 -20 -14 -34t-34 -14t-34 14t-14 34v136h-280v-136q0 -20 -14 -34t-34 -14t-34 14t-14 34v176q0 2 1 4q0 1 -0.5 2t-0.5 2q0 20 14 34t34 14h328
v144q0 20 14 34t34 14t34 -14t14 -34v-144h328q20 0 34 -14t14 -34q0 -2 -1 -4q0 -1 0.5 -2t0.5 -2v-176q0 -20 -14 -34t-34 -14zM512 668q-40 0 -68 28t-28 68t28 68t68 28t68 -28t28 -68t-28 -68t-68 -28zM232 4q0 -40 -28 -68t-68 -28t-68 28t-28 68t28 68t68 28t68 -28
t28 -68zM512 100q40 0 68 -28t28 -68t-28 -68t-68 -28t-68 28t-28 68t28 68t68 28z" />
    <glyph glyph-name="uniE612" unicode="&#xe612;" 
d="M485 -64h-341q-7 0 -11.5 5t-4.5 11v864q0 7 4.5 11.5t11.5 4.5h736q7 0 11.5 -4.5t4.5 -11.5v-576l64 -28v604q0 33 -23.5 56.5t-56.5 23.5h-736q-33 0 -56.5 -23.5t-23.5 -56.5v-864q0 -33 23.5 -56.5t56.5 -23.5h341v64zM860 246q0 41 -29.5 70.5t-70.5 29.5
t-70.5 -29.5t-29.5 -70.5t29.5 -70.5t70.5 -29.5t70.5 29.5t29.5 70.5zM894 112h-19l-104 -211l39 195l-50 50l-50 -50l39 -195l-104 211h-20q-19 0 -32 -5.5t-20 -13t-10 -23t-3.5 -26t-0.5 -32.5v-140h401v140q0 22 -0.5 32.5t-4 26t-10 23t-19.5 13t-32 5.5zM229 728h562
v-58h-562v58zM229 577h453v-63h-453v63zM229 415h369v-59h-369v59z" />
    <glyph glyph-name="uniE613" unicode="&#xe613;" horiz-adv-x="1031" 
d="M896 599q0 106 -75 181t-181 75q-68 0 -128 -34q-59 34 -127 34q-107 0 -182 -75t-75 -181q0 -61 26.5 -113.5t72.5 -88.5q-99 -45 -161 -135.5t-65 -201.5l-1 -14q0 -18 12.5 -30.5t30 -12.5t30 12.5t12.5 30.5l1 1q0 117 79 202t194 95q13 -1 26 -1t25 1q93 -8 166 -68
q2 4 4.5 7t13.5 14.5t18.5 18.5t16.5 12q5 3 12 4q-7 6 -13 11h18q14 0 20 1q23 2 45 9q59 -26 106 -64q10 18 26 31q21 16 41 22q-40 33 -87 54q46 36 72.5 89t26.5 114zM384 423q-73 0 -124.5 51.5t-51.5 124t51.5 124t124.5 51.5t124.5 -51.5t51.5 -124t-51.5 -124
t-124.5 -51.5zM719 449l-8 -4q-25 -12 -53 -15l-17 -1h-1h-1q-28 0 -55 9q57 70 57 161t-57 162q27 9 55 9q71 0 121 -50t50 -121q0 -48 -25 -88t-66 -62zM821 73l20 -20l-13 -13q-9 -10 3 -22l100 -100q1 -1 3 -2t7.5 -2t9.5 3l51 49q8 12 -3 22l-100 99q-1 1 -3 2.5
t-8.5 3t-11.5 -4.5l-13 -13l-21 21zM807 130l-107 106v33l-64 38l-31 -31l38 -61h34l106 -105zM634 -49v5q0 3 4.5 7.5t12.5 4.5q1 0 3.5 -0.5t7 -5t4.5 -11.5q0 -1 -0.5 -3.5t-4.5 -7t-11 -4.5l-14 -14q2 -2 6 -5t15.5 -3.5t22.5 8.5l192 205q2 -1 6.5 -3.5t18 -6.5
t27.5 -4q39 -1 69 25q2 2 6 5.5t12.5 15.5t13.5 25t5 33t-9 40l-68 -67l-58 58l68 66q-5 2 -13.5 5.5t-35.5 1.5t-53 -19q-4 -2 -9 -7t-16 -20.5t-15 -32.5q-2 -5 -3.5 -13.5t2.5 -31.5t18 -41l-216 -177q-1 -2 -3 -4.5t-5 -11t1 -17.5zM634 -49q0 -1 0.5 -3.5t4.5 -7
t11 -4.5l-14 -14q-19 16 -21 24z" />
    <glyph glyph-name="uniE614" unicode="&#xe614;" 
d="M509 664q-60 0 -102 -28.5t-58 -78.5q-4 -11 -4 -24q0 -22 15 -36t37 -14q36 0 52 38q15 42 57 42q24 0 36.5 -14.5t12.5 -34.5q0 -17 -5.5 -31t-24.5 -36l-43 -52q-19 -22 -26.5 -42t-7.5 -49v-6q0 -24 15 -39t39 -15t39.5 15.5t15.5 38.5v5q0 19 18 40l47 56
q46 54 46 116q0 66 -44.5 107.5t-114.5 41.5zM504 221q-27 0 -46.5 -19t-19.5 -46t19.5 -46.5t46.5 -19.5q26 0 45.5 19.5t19.5 46.5t-19.5 46t-45.5 19zM614 896h-204q-111 0 -205.5 -55t-149.5 -149.5t-55 -205.5v-204q0 -111 55 -205.5t149.5 -149.5t205.5 -55h204
q111 0 205.5 55t149.5 149.5t55 205.5v204q0 111 -55 205.5t-149.5 149.5t-205.5 55zM937 282q0 -88 -43.5 -162t-117.5 -117.5t-162 -43.5h-204q-88 0 -162 43.5t-117.5 117.5t-43.5 162v204q0 88 43.5 162t117.5 117.5t162 43.5h204q88 0 162 -43.5t117.5 -117.5
t43.5 -162v-204z" />
    <glyph glyph-name="uniE615" unicode="&#xe615;" horiz-adv-x="1366" 
d="M765 383l-162 -116v232z" />
    <glyph glyph-name="uniE616" unicode="&#xe616;" 
d="M64 710v-685q0 -7 5 -12.5t13 -5.5h859q8 0 13.5 5.5t5.5 12.5v685q0 8 -5.5 13.5t-13.5 5.5h-859q-8 0 -13 -5.5t-5 -13.5zM866 82h-709q-8 0 -13.5 5t-5.5 13v536q0 7 5.5 12.5t13.5 5.5h709q8 0 13.5 -5.5t5.5 -12.5v-536q0 -8 -5.5 -13t-13.5 -5zM681 208
q0 3 -1.5 8.5t-16 19.5t-40.5 26q-7 3 -25 13t-38 19.5t-41 16.5q-8 2 -11.5 10.5t1.5 16.5q10 18 24 53q6 14 6 55q0 4 0.5 17t0.5 22.5t-2 16.5q-17 61 -87.5 61t-87.5 -61q-2 -7 -2 -16.5t0.5 -22.5t0.5 -17q0 -41 6 -56q14 -35 24 -52q5 -8 1.5 -16.5t-11.5 -11.5
q-21 -6 -41 -15.5t-37.5 -19.5t-25.5 -13q-25 -12 -39.5 -25.5t-16.5 -20.5l-1 -8v-29q0 -8 5.5 -13t12.5 -5h424q7 0 12.5 5.5t5.5 12.5v29zM623 549h149q8 0 13 -5.5t5 -13.5q0 -7 -5 -12.5t-13 -5.5h-149q-8 0 -13.5 5.5t-5.5 12.5q0 8 5.5 13.5t13.5 5.5zM623 462h73
q7 0 12.5 -5.5t5.5 -13.5q0 -7 -5.5 -12.5t-12.5 -5.5h-73q-8 0 -13.5 5.5t-5.5 12.5q0 8 5.5 13.5t13.5 5.5zM623 375h118q8 0 13.5 -5.5t5.5 -12.5q0 -8 -5.5 -13.5t-13.5 -5.5h-118q-8 0 -13.5 5.5t-5.5 13.5q0 7 5.5 12.5t13.5 5.5z" />
    <glyph glyph-name="uniE617" unicode="&#xe617;" 
d="M258 -26q13 17 72 23t187 4q231 -5 254 -11q15 -10 15 -24q0 -11 -75 -17.5t-202 -6.5q-228 0 -251 14q-9 6 0 18zM421 74q0 21 -27 28.5t-100 7.5q-116 0 -148 12q-44 17 -57 78q-11 52 -11 258v39q0 64 -0.5 91.5t4.5 71t5.5 58t16 41t22 32t37 18.5t47.5 14t67.5 5
t83 3.5t105.5 -0.5h46h46q73 0 105.5 0.5t83 -3.5t67.5 -5t47.5 -14t37 -18.5t22 -32t16 -41t5.5 -58t4.5 -71t-0.5 -91.5v-39q0 -208 -12 -260q-13 -60 -57 -76q-32 -12 -147 -12q-73 0 -100 -7.5t-27 -28.5q0 -20 -21 -28t-70 -8t-70 8t-21 28zM877 182q0 10 -6.5 17
t-16 7t-16.5 -7t-7 -17t7 -17t16.5 -7t16 7t6.5 17zM877 507v252h-730v-505h730v253zM489 416q-33 128 -55 135q-15 5 -39 -39q-3 -7 -8 -16q-25 -50 -45 -62t-75 -7q-72 7 -90 33q-13 20 21 29q17 6 45 6q52 0 73 18t55 91q21 46 43.5 75.5t33.5 25.5t28.5 -43t31 -90.5
t29 -88.5t24 -37t14 7.5t5.5 17.5t40.5 17t98.5 7q127 0 130 -24q1 -3 -1 -7q-4 -13 -35 -22t-75 -9q-63 -1 -88 -13.5t-47 -52.5q-37 -70 -63 -59t-51 108z" />
    <glyph glyph-name="uniE618" unicode="&#xe618;" horiz-adv-x="1025" 
d="M507 -128q-69 0 -153 45q-49 27 -154 102q-14 10 -14 11q-125 89 -177 163l-1 1q-12 17 -7 52l1 430q-3 24 8 43q15 23 54.5 53.5t85.5 50.5q35 15 58 23.5t67.5 21t99 19t118.5 6.5q118 0 245 -34q91 -24 141 -50q6 -3 17 -9q76 -39 92 -60q20 -25 15 -65v-385v-18
q1 -55 -5 -66q-18 -35 -87 -88q-34 -26 -75 -26t-75 22l-198 101q-23 -31 -74 -63q-52 -32 -160 -56l-10 -2l-33 69l19 1q32 3 79 19q95 31 127 80q13 20 18.5 56t5.5 62v13h67l-1 -13q-1 -38 -3 -64q-2 -19 -9 -44q77 -35 139 -65q16 -7 40 -19q48 -24 65 -24h5q18 1 45 23
t48 47v457v5q-2 2 -15 10l-3 2q-27 18 -63.5 35.5t-121 41.5t-174.5 32q-37 3 -73 3q-198 0 -338 -82q-55 -33 -72 -58v-452q16 -22 22 -29q6 -6 25.5 -24.5t63.5 -54t91 -68.5q86 -59 140 -84.5t96 -25.5q27 0 61 11t80.5 41.5t65.5 46.5t30 26l10 9l44 -54l-7 -8
q-9 -9 -40 -34l-2 -2q-109 -86 -204 -103q-19 -4 -40 -4zM177 138l5 10q26 42 44 105q18 64 18 198v274h13h4q126 0 274 7q105 4 249 17l10 1l24 -68l-17 -1q-128 -8 -202 -12v-67h212v-65h-212v-60h171v-245h-69v182h-270v-182h-69v245h168v60h-204v65h204v64
q-78 -3 -217 -6v-152q0 -187 -20 -271q-17 -71 -53 -132l-8 -13z" />
    <glyph glyph-name="uniE619" unicode="&#xe619;" 
d="M891 744q-34 19 -69 19h-620q-35 0 -69 -19l379 -373zM940 696l-402 -396q-11 -10 -26 -9q-15 -1 -26 9l-402 396q-19 -34 -19 -69v-474q0 -56 40.5 -95.5t96.5 -39.5h620q56 0 96.5 39.5t40.5 95.5v474q0 35 -19 69z" />
  </font>
</defs>
</svg>
